9/23/16

Teenage Mutant Ninja Turtles Out of the Shadows (2016) Org Untouched Dvd DD 5.1 448 Kbps Hindi Audio


Audio Info:
Format : Ac3
Channel(s) : 6 Channels
Bit rate : 448 Kbps
Sampling rate : 48.0 KHz
Note :Delay fix.ac3 (y)
(No Delay Just Direct Mux With Any Rip)

Audio Link:

TMNT 2 : Out of the Shadows Org. Hindi Audio 2CH @128Kbps (103MB)

Format : AC-3
Format/Info : Audio Coding 3
File size : 103 MiB
Overall bit rate mode : Constant
Duration : 1h 52mn
Bit rate mode : Constant
Bit rate : 128 Kbps
Channel positions : Front: L R
Channel(s) : 2 channels
Sampling rate : 44.1 KHz
Language : Hindi
Default : Yes

Audio Link:

Captain America Civil War (2016) DD 5.1 640 kbps Hindi Audio

Audio Info:
Format : AC-3
Duration : 2h 27mn
Bit rate : 640 Kbps
Channel(s) : 6 channels
Sampling rate : 48.0 KHz
Stream size : 676 MiB (12%)
Language : Hindi

Audio Link:

CAPTAIN AMERICA : CIVIL WAR (2016) Org. Hindi Audio 2CH @128Kbps

Format : AC-3
File size : 136 MiB
Duration : 2h 27mn
Bit rate : 128 Kbps
Channel(s) : 2 channels
Sampling rate : 44.1 KHz
Language : Hindi
Default : Yes

Audio Link:

9/22/16

Point Break (2015) 224 kbps


Audio Info:
Format : AC-3
Format/Info : Audio Coding 3
Mode extension : CM (complete main)
Format settings, Endianness : Big
Duration : 1 h 53 min
Bit rate mode : Constant
Bit rate : 224 kb/s
Channel(s) : 6 channels
Channel positions : Front: L C R, Side: L R, LFE
Sampling rate : 48.0 kHz
Frame rate : 31.250 FPS (1536 spf)
Compression mode : Lossy
Stream size : 182 MiB (100%)

Audio Link :

Evil Dead (2013) Dolby Digital 5.1 448Kbps


Audio Info:
Format : AC-3
Format/Info : Audio Coding 3
Mode extension : CM (complete main)
Format settings, Endianness : Big
Duration : 1 h 27 min
Bit rate mode : Constant
Bit rate : 448 kb/s
Channel(s) : 6 channels
Channel positions : Front: L C R, Side: L R, LFE
Sampling rate : 48.0 kHz
Frame rate : 31.250 FPS (1536 spf)
Compression mode : Lossy
Stream size : 281 MiB (100%)

Audio Link:
4shared (DL)

9/20/16

Napoleon Dynamite (2004) Hindi Audio 2Ch


Info:
Format : AAC
Format/Info : Advanced Audio Codec
Format profile : LC
Codec ID : A_AAC
Duration : 1h 35mn
Channel(s) : 2 channels
Channel positions : Front: L R
Sampling rate : 48.0 KHz
Compression mode : Lossy
Language : Hindi

Audio Link:
4shared (DL)

9/17/16

The Collection (2012) Hindi Audio



General :
Format : Matroska
File size : 262 MiB
Duration : 1 h 21 min
Overall bit rate : 448 kb/s

Audio :
Format : AC-3
Format/Info : Audio Coding 3
Bit rate mode : Constant
Bit rate : 448 kb/s
Channel(s) : 6 channels
Sampling rate : 48.0 kHz
Stream size : 261 MiB (100%)
Language : Hindi

Audio :

The Departed (2006) Hindi Audio


Info:
Format : AC-3
Format/Info : Audio Coding 3
Format profile : Dolby Digital
Mode extension : CM (complete main)
Format settings, Endianness : Big
Duration : 2h 31mn
Bit rate mode : Constant
Bit rate : 224 Kbps
Channel(s) : 2 channels
Channel positions : Front: L R
Sampling rate : 44.1 KHz
Bit depth : 16 bits
Compression mode : Lossy
Stream size : 242 MiB (100%)

Perfect sync 23.976 
Thanks Shawn James


Audio Link:
4shared (DL)

9/14/16

Apocalypse, AC3, Hindi, 5.1 channels, 448kbps


Audio :
Format : AC-3
Format/Info : Audio Coding 3
Duration : 2 h 23 min
Bit rate mode : Constant
Bit rate : 448 kb/s
Channel(s) : 6 channels
Sampling rate : 48.0 kHz
Stream size : 461 MiB (100%)

Audio Link:

9/11/16

Angry Birds 2016 640Kbps Original Untouched Bluray DD 5.1 Hindi Audio ~ GPSOFT


Audio Info :
Format : AC-3 
Format/Info : Audio Coding 3 
Mode extension : CM (complete main) 
Format settings, Endianness : Big 
Duration : 1 h 37 min 
Bit rate mode : Constant 
Bit rate : 640 kb/s 
Channel(s) : 6 channels 
Channel positions : Front: L C R, Side: L R, LFE 
Sampling rate : 48.0 kHz 
Frame rate : 31.250 FPS (1536 spf) 
Compression mode : Lossy 
Stream size : 445 MiB (100%)

Audio Link:

9/10/16

The Notebook (2004) Hindi Audio 2CH [BHATTI 87]


Format : AC-3 
Duration : 2h 3mn 
Bit rate mode : Constant 
Bit rate : 128 Kbps 
Channel(s) : 2 channels 
Channel positions : Front: L R 
Sampling rate : 48.0 KHz 
Bit depth : 16 bits 
Compression mode : Lossy 
Stream size : 113 MiB (12%) 
Language : Hindi

Audio Link: